Начать новую тему Ответить на тему
Статистика раздачи
Размер: 1.71 ГБ | | Скачали: 1
Сидеров: 1  [0 байт/сек]    Личеров: 0  [0 байт/сек]
Пред. тема | След. тема 

Автор
Сообщение

Ответить с цитатой 

Релиз группа

Стаж: 10 лет 5 месяцев 9 дней
Раздал: 506.14 МБ
Скачал: 1 МБ
Ратио: 506.142
Торренты: 14426
Вилли Токарев - В шумном балагане

Жанр: Шансон
Носитель: LP
Год выпуска: 1993
Лейбл: Aprelevka Sound Inc
Номер по каталогу: R90 02093
Страна-производитель: Россия
Аудио кодек: FLAC
Тип рипа: image+.cue
Формат записи: 32/192
Формат раздачи: 24/192
Продолжительность: 00:45:45
Треклист:
Сторона А
A1. В шумном балагане
A2. Песня тракториста
A3. Люська - хулиганка
A4. Держи вора
A5. Ростовский урка
A6. Воры - гуманисты
A7. Зойка - налетчица
A8. Бродяга
Сторона B
B9. Чубчик кучерявый
B10. Политика
B11. Я мальчишка седой
B12. В бегах
B13. Ты прости, Господь
B14. На Дерибасовской
Источник оцифровки: автором раздачи
Код класса состояния винила: Mint
Устройство воспроизведения: Rega RP3
Головка звукоснимателя: Elys-2
Предварительный усилитель: Cambridge Audio Azur 651P
АЦП: ASUS Xonar Essence STX
Программа-оцифровщик: WaveLab 6
Обработка: Убрал заметные клики вручную и щелчки в паузах в iZotope RX3
Абсолютно новая неигранная пластинка складского хранения!



Код:
Код:
REM GENRE Chanson
REM DATE 1993
REM COMMENT Vinyl rip by rmb_rmb
REM Label - Aprelevka Sound Inc.
REM CATALOGUE "R90 02094"
PERFORMER "Вилли Токарев"
TITLE "В шумном балагане"
FILE "Вилли Токарев - В шумном балагане - Side A.flac" WAVE
  TRACK 01 AUDIO
    TITLE "В шумном балагане"
    PERFORMER "Вилли Токарев"
    INDEX 01 00:00:00
  TRACK 02 AUDIO
    TITLE "Песня тракториста"
    PERFORMER "Вилли Токарев"
    INDEX 01 02:38:62
  TRACK 03 AUDIO
    TITLE "Люська - хулиганка"
    PERFORMER "Вилли Токарев"
    INDEX 01 06:36:09
  TRACK 04 AUDIO
    TITLE "Держи вора"
    PERFORMER "Вилли Токарев"
    INDEX 01 09:01:52
  TRACK 05 AUDIO
    TITLE "Ростовский урка"
    PERFORMER "Вилли Токарев"
    INDEX 01 11:43:71
  TRACK 06 AUDIO
    TITLE "Воры - гуманисты"
    PERFORMER "Вилли Токарев"
    INDEX 01 15:06:23
  TRACK 07 AUDIO
    TITLE "Зойка - налетчица"
    PERFORMER "Вилли Токарев"
    INDEX 01 17:09:24
  TRACK 08 AUDIO
    TITLE Бродяга
    PERFORMER "Вилли Токарев"
    INDEX 01 20:16:10
FILE "Вилли Токарев - В шумном балагане - Side B.flac" WAVE
  TRACK 09 AUDIO
    TITLE "Чубчик кучерявый"
    PERFORMER "Вилли Токарев"
    INDEX 01 00:00:00
  TRACK 10 AUDIO
    TITLE Политика
    PERFORMER "Вилли Токарев"
    INDEX 01 03:14:51
  TRACK 11 AUDIO
    TITLE "Я мальчишка седой"
    PERFORMER "Вилли Токарев"
    INDEX 01 06:19:32
  TRACK 12 AUDIO
    TITLE "В бегах"
    PERFORMER "Вилли Токарев"
    INDEX 01 09:47:69
  TRACK 13 AUDIO
    TITLE "Ты прости, Господь"
    PERFORMER "Вилли Токарев"
    INDEX 01 13:13:63
  TRACK 14 AUDIO
    TITLE "На Дерибасовской"
    PERFORMER "Вилли Токарев"
    INDEX 01 18:03:39



с обеих сторон - в раздаче



:: Мои оцифровки ВИНИЛА на трекере в моих раздачах ::[/spoiler]
Правила, инструкции, FAQ!!!
Торрент   Скачать торрент Магнет ссылка
Скачать торрент
[ Размер 18.56 КБ / Просмотров 25 ]

Статус
Проверен 
 
Размер  1.71 ГБ
Приватный: Нет (DHT включён)
.torrent скачан  1
Как залить торрент? | Как скачать Torrent? | Ошибка в торренте? Качайте магнет  


Профиль     Отправить личное сообщение
   
Страница 1 из 1
Показать сообщения за:  Поле сортировки  
Начать новую тему Ответить на тему


Сейчас эту тему просматривают: нет зарегистрированных пользователей и гости: 1


Вы не можете начинать темы
Вы не можете отвечать на сообщения
Вы не можете редактировать свои сообщения
Вы не можете удалять свои сообщения
Вы не можете добавлять вложения

Перейти:  
Ресурс не предоставляет электронные версии произведений, а занимается лишь коллекционированием и каталогизацией ссылок, присылаемых и публикуемых на форуме нашими читателями. Если вы являетесь правообладателем какого-либо представленного материала и не желаете чтобы ссылка на него находилась в нашем каталоге, свяжитесь с нами и мы незамедлительно удалим её. Файлы для обмена на трекере предоставлены пользователями сайта, и администрация не несёт ответственности за их содержание. Просьба не заливать файлы, защищенные авторскими правами, а также файлы нелегального содержания!