Начать новую тему Ответить на тему
Статистика раздачи
Размер: 762.59 МБ | | Скачали: 1
Сидеров: 1  [0 байт/сек]    Личеров: 0  [0 байт/сек]
Пред. тема | След. тема 

Автор
Сообщение

Ответить с цитатой 

Релиз группа

Стаж: 11 лет 1 месяц 20 дней
Раздал: 506.14 МБ
Скачал: 1 МБ
Ратио: 506.142
Торренты: 14417
James Last - Classics Up To Date Vol. 2 - 1969
Жанр: Easy Listening
Носитель: LP
Год выпуска: 1969
Лейбл: Polydor 249 371
Страна-производитель: Germany
Аудио кодек: FLAC
Тип рипа: image+.cue
Формат записи: 24/96
Формат раздачи: 24/96
Продолжительность: 40:23
Треклист:
01. Andante From The Concerto For Piano And Orchestra No, 21 'Theme From Elvira Madigan' (In C Major, K 467) 3:22
02. Presto From The Symphony No, 7 (In A Major, Op. 92) 2:47
03. Romance For Violin And Orchestra (In F Major, Op. 50) 4:34
04. Impromptu No. 2 (In A Flat Major, Op. 192) 3:34
05. Air From The Suite No, 3 (In D Major, BWV 1068) 4:38
06. Impromptu No, 3 (In G Flat Major, Op. 90) 3:49
07. Adagio From The Sonata No, 8 'Pathetique' (In C Minor, Op. 92) 3:17
08. Slavonic Dance No, 10 2:21
09. Andante From The Violin Concerto (In E Minor, Op. 64) 4:52
10. Prelude (In C Major) 2:39
11. Andante From The Symphony No, 5 (In C Minor, Op. 67) 1:57
12. Ballet Music From 'Prince Igor' 2:31
Источник оцифровки: автором раздачи
Код класса состояния винила: NM
Устройство воспроизведения: Technics SL 1210MK2
Головка звукоснимателя: Ortofon 2M Bronze with Technics headshell
Предварительный усилитель: Ламповый на 6Ж32П
АЦП: Roland UA-55
Программа-оцифровщик: Sound Forge Pro 11
Обработка: Убрал пару щелчков
REM DATE 1969
REM COMMENT LP: Polydor 249 371
PERFORMER "James Last Orchestra"
TITLE "Classics Up To Date Vol. 2 (Polydor 249 371)"
FILE "James Last Orchestra-1969-Classics Up To Date Vol. 2 (Polydor 249 371).flac" WAVE
TRACK 01 AUDIO
TITLE "Andante From The Concerto For Piano And Orchestra No, 21 'Theme From Elvira Madigan' (In C Major, K 467)"
PERFORMER "James Last Orchestra"
INDEX 01 00:00:00
TRACK 02 AUDIO
TITLE "Presto From The Symphony No, 7 (In A Major, Op. 92)"
PERFORMER "James Last Orchestra"
INDEX 01 03:21:61
TRACK 03 AUDIO
TITLE "Romance For Violin And Orchestra (In F Major, Op. 50)"
PERFORMER "James Last Orchestra"
INDEX 01 06:09:15
TRACK 04 AUDIO
TITLE "Impromptu No. 2 (In A Flat Major, Op. 192)"
PERFORMER "James Last Orchestra"
INDEX 01 10:43:28
TRACK 05 AUDIO
TITLE "Air From The Suite No, 3 (In D Major, BWV 1068)"
PERFORMER "James Last Orchestra"
INDEX 01 14:17:40
TRACK 06 AUDIO
TITLE "Impromptu No, 3 (In G Flat Major, Op. 90)"
PERFORMER "James Last Orchestra"
INDEX 01 18:55:61
TRACK 07 AUDIO
TITLE "Adagio From The Sonata No, 8 'Pathetique' (In C Minor, Op. 92)"
PERFORMER "James Last Orchestra"
INDEX 01 22:45:23
TRACK 08 AUDIO
TITLE "Slavonic Dance No, 10"
PERFORMER "James Last Orchestra"
INDEX 01 26:02:46
TRACK 09 AUDIO
TITLE "Andante From The Violin Concerto (In E Minor, Op. 64)"
PERFORMER "James Last Orchestra"
INDEX 01 28:23:37
TRACK 10 AUDIO
TITLE "Prelude (In C Major)"
PERFORMER "James Last Orchestra"
INDEX 01 33:15:74
TRACK 11 AUDIO
TITLE "Andante From The Symphony No, 5 (In C Minor, Op. 67)"
PERFORMER "James Last Orchestra"
INDEX 01 35:55:17
TRACK 12 AUDIO
TITLE "Ballet Music From 'Prince Igor'"
PERFORMER "James Last Orchestra"
INDEX 01 37:52:30
Правила, инструкции, FAQ!!!
Торрент   Скачать торрент Магнет ссылка
Скачать торрент
[ Размер 15.62 КБ / Просмотров 7 ]

Статус
Проверен 
 
Размер  762.59 МБ
Приватный: Нет (DHT включён)
.torrent скачан  1
Как залить торрент? | Как скачать Torrent? | Ошибка в торренте? Качайте магнет  


Профиль     Отправить личное сообщение
   
Страница 1 из 1
Показать сообщения за:  Поле сортировки  
Начать новую тему Ответить на тему


Сейчас эту тему просматривают: нет зарегистрированных пользователей и гости: 1


Вы не можете начинать темы
Вы не можете отвечать на сообщения
Вы не можете редактировать свои сообщения
Вы не можете удалять свои сообщения
Вы не можете добавлять вложения

Перейти:  
Ресурс не предоставляет электронные версии произведений, а занимается лишь коллекционированием и каталогизацией ссылок, присылаемых и публикуемых на форуме нашими читателями. Если вы являетесь правообладателем какого-либо представленного материала и не желаете чтобы ссылка на него находилась в нашем каталоге, свяжитесь с нами и мы незамедлительно удалим её. Файлы для обмена на трекере предоставлены пользователями сайта, и администрация не несёт ответственности за их содержание. Просьба не заливать файлы, защищенные авторскими правами, а также файлы нелегального содержания!