Начать новую тему Ответить на тему
Статистика раздачи
Размер: 725.4 МБ | | Скачали: 0
Сидеров: 1  [0 байт/сек]    Личеров: 0  [0 байт/сек]
Пред. тема | След. тема 

Автор
Сообщение

Ответить с цитатой 

Релиз группа

Стаж: 11 лет 1 месяц 11 дней
Раздал: 506.14 МБ
Скачал: 1 МБ
Ратио: 506.142
Торренты: 14417
Ensemble Lionceaux - Latin Piano in Beat - vol. 2
Жанр: Easy Listening, World Music,Instrumental,Retro,Latino
Носитель: LP
Год выпуска: 1967
Лейбл: King Record/SKK-375
Страна-производитель: Japan
Аудио кодек: FLAC
Тип рипа: image+.cue
Формат записи: 24/96
Формат раздачи: 24/96
Продолжительность: 00:35:20
Треклист:
Side 1
A1. Mass Que Nada (J.Ben)
A2. The Peanut Vendor (A.Gamse,L.W.Gilbert-M.Simons)
A3. Ay,Ay,Ay (O.P.Freire)
A4. Solamente Una Vez (A.Lara)
A5. Tres Palabras (Without You) (R.G.Lbert - O.Farres)
A6. Da Cucaracha (Folklore)
Side 2
B1. On A Tropic Night (A.Dara)
B2. Brazil (B.Rassel, A.Barroso)
B3. Estrellita (M.Ponce)
B4. Quien Sera (P.B.Ruiz)
B5. Come Closer To Me (Acercate Mas)
B6. Frensi (A.Dominguez)
Источник оцифровки: VALIKO (aka Валентин)
Код класса состояния винила: Ex
Устройство воспроизведения: VICTOR JL-B37
Головка звукоснимателя: SHURE V15/III /Stylus SAS VN35HE "Special Tracking" JICO
Предварительный усилитель: VICTOR P-3030
АЦП: ONKYO WAVIO SE-300PCIE
Программа-оцифровщик: WavePurity Professional
Обработка: не проводилась(нативный рип)
foobar2000 1.3.5 / Dynamic Range Meter 1.1.1
log date: 2014-11-26 20:13:07
--------------------------------------------------------------------------------
Analyzed: Ensemble Lionceaux / Latin Piano in Beat - vol. 2
--------------------------------------------------------------------------------
DR Peak RMS Duration Track
--------------------------------------------------------------------------------
DR11 -0.01 dB -13.54 dB 2:29 01-Side 1 - A1. Mass Que Nada (J.Ben)
DR12 -1.35 dB -15.11 dB 2:51 02-A2. The Peanut Vendor (A.Gamse,L.W.Gilbert-M.Simons)
DR11 -1.74 dB -14.85 dB 3:10 03-A3. Ay,Ay,Ay (O.P.Freire)
DR11 -2.60 dB -16.72 dB 3:16 04-A4. Solamente Una Vez (A.Lara)
DR10 -0.16 dB -14.14 dB 3:10 05-A5. Tres Palabras (Without You) (R.G.Lbert - O.Farres)
DR12 -0.36 dB -15.10 dB 2:54 06-A6. Da Cucaracha (Folklore)
DR12 -2.06 dB -16.88 dB 2:47 07-Side 2 - B1. On A Tropic Night (A.Dara)
DR12 -0.06 dB -14.10 dB 2:53 08-B2. Brazil (B.Rassel, A.Barroso)
DR10 -1.61 dB -14.50 dB 3:06 09-B3. Estrellita (M.Ponce)
DR11 -1.09 dB -14.31 dB 2:29 10-B4. Quien Sera (P.B.Ruiz)
DR10 -0.01 dB -13.51 dB 3:18 11-B5. Come Closer To Me (Acercate Mas)
DR10 -0.57 dB -13.01 dB 2:58 12-B6. Frensi (A.Dominguez)
--------------------------------------------------------------------------------
Number of tracks: 12
Official DR value: DR11
Samplerate: 96000 Hz
Channels: 2
Bits per sample: 24
Bitrate: 2843 kbps
Codec: FLAC
================================================================================
#777#777
Доп. информация:
VALIKO написал:
"...вот,наткнулся в своих развалах(коллекции)),на сей архивный экземпляр.Честно три дня копал про эту пластинку интернет,да так ничего и не накопал.и выкладываю как есть.
В альбоме присутствуют различные танцевальные жанры.также фольклер переложеный на оркестровки...
Год выпуска тоже не знаю.предполагаю что 50-60-е."
==================================================================================
Уважаемый pervertix выяснил, что это:
Ensemble Lionceaux
Latin Piano in Beat - vol. 2 - 1967
King Records Japan
за что ему огромная благодарность
Правила, инструкции, FAQ!!!
Торрент   Скачать торрент Магнет ссылка
Скачать торрент
[ Размер 15.12 КБ / Просмотров 3 ]

Статус
Проверен 
 
Размер  725.4 МБ
Приватный: Нет (DHT включён)
.torrent скачан  0
Как залить торрент? | Как скачать Torrent? | Ошибка в торренте? Качайте магнет  


Профиль     Отправить личное сообщение
   
Страница 1 из 1
Показать сообщения за:  Поле сортировки  
Начать новую тему Ответить на тему


Сейчас эту тему просматривают: нет зарегистрированных пользователей и гости: 1


Вы не можете начинать темы
Вы не можете отвечать на сообщения
Вы не можете редактировать свои сообщения
Вы не можете удалять свои сообщения
Вы не можете добавлять вложения

Перейти:  
Ресурс не предоставляет электронные версии произведений, а занимается лишь коллекционированием и каталогизацией ссылок, присылаемых и публикуемых на форуме нашими читателями. Если вы являетесь правообладателем какого-либо представленного материала и не желаете чтобы ссылка на него находилась в нашем каталоге, свяжитесь с нами и мы незамедлительно удалим её. Файлы для обмена на трекере предоставлены пользователями сайта, и администрация не несёт ответственности за их содержание. Просьба не заливать файлы, защищенные авторскими правами, а также файлы нелегального содержания!