Начать новую тему Ответить на тему
Статистика раздачи
Размер: 336.7 МБ | | Скачали: 2
Сидеров: 2  [0 байт/сек]    Личеров: 1  [0 байт/сек]
Пред. тема | След. тема 

Автор
Сообщение

Ответить с цитатой 

Релиз группа

Стаж: 11 лет 1 месяц 20 дней
Раздал: 506.14 МБ
Скачал: 1 МБ
Ратио: 506.142
Торренты: 14417
Эдит Пиаф / Неизвестная Эдит Пиаф
Жанр: Chanson
Носитель: CD
Страна-производитель диска (релиза): Россия
Год издания: 2003
Издатель (лейбл): Росмэн-Аудио
Номер по каталогу: РА 21 02 CD
Страна исполнителя (группы): Франция
Аудиокодек: FLAC (*.flac)
Тип рипа: image+.cue
Битрейт аудио: lossless
Продолжительность: 01:03:23
Источник (релизер): Собственный рип
Наличие сканов в содержимом раздачи: да
Треклист:
01. Осенние листья (Autumn Leaves)
02. Я ни о чем не жалею (No Regrets)
03. Три колокола (The Three Bells)
04. Жизнь в розовом свете (La Vie en Rose)
05. Моя потерянная мелодия (My Lost Melody)
06. Не плачь (Don't Cry)
07. Гимн любви (Hymn to Love)
08. Просто вальс (Simply Waltz)
09. Потому что я тебя люблю ('Cause I Love You)
10. Один маленький человечек (One Little Man)
11. Мне все равно (I Shouldn't Care)
12. Небеса благодарят (Heaven Have Mercy)
13. Ты это не слышишь (Toi, Tu L'Entends Pas)
14. Он был нужен (Fallait-II)
15. Дети колокола (Les Momes De La Cloche)
16. La Java De Cezigue
17. Просто привет (Simple Comme Bonjour)
18. Они танцуют под мою песню (On Danse Sur Ma Chanson)
Код:
Exact Audio Copy V1.1 from 23. June 2015
Отчёт EAC об извлечении, выполненном 10. октября 2015, 1:00
Эдит Пиаф / Неизвестная Эдит Пиаф
Дисковод: MATSHITADVD-RAM UJ890AS   Adapter: 1  ID: 0
Режим чтения                 : Достоверность
Использование точного потока : Да
Отключение кэша аудио        : Да
Использование указателей C2  : Нет
Коррекция смещения при чтении                     : 102
Способность читать области Lead-in и Lead-out     : Нет
Заполнение пропущенных сэмплов тишиной            : Да
Удаление блоков с тишиной в начале и конце        : Нет
При вычислениях CRC использовались нулевые сэмплы : Да
Интерфейс                                         : Встроенный Win32-интерфейс для Win NT/2000
Выходной формат          : Пользовательский кодировщик
Выбранный битрейт        : 320 kBit/s
Качество                 : Высокий
Добавление ID3-тега      : Нет
Утилита сжатия           : C:\Program Files (x86)\Exact Audio Copy\Flac\flac.exe
Дополнительные параметры : -V -8 -T "Date=%year%" -T "Genre=%genre%" %source%
TOC извлечённого CD
     Трек |   Старт  | Длительность | Начальный сектор | Конечный сектор
    ---------------------------------------------------------------------
       1  |  0:00.00 |    3:29.70   |           0      |      15744
       2  |  3:29.70 |    2:28.02   |       15745      |      26846
       3  |  5:57.72 |    3:25.68   |       26847      |      42289
       4  |  9:23.65 |    3:25.40   |       42290      |      57704
       5  | 12:49.30 |    4:43.72   |       57705      |      79001
       6  | 17:33.27 |    2:48.26   |       79002      |      91627
       7  | 20:21.53 |    3:26.08   |       91628      |     107085
       8  | 23:47.61 |    3:20.45   |      107086      |     122130
       9  | 27:08.31 |    2:53.53   |      122131      |     135158
      10  | 30:02.09 |    4:15.69   |      135159      |     154352
      11  | 34:18.03 |    2:30.42   |      154353      |     165644
      12  | 36:48.45 |    3:42.04   |      165645      |     182298
      13  | 40:30.49 |    4:52.19   |      182299      |     204217
      14  | 45:22.68 |    4:29.65   |      204218      |     224457
      15  | 49:52.58 |    3:19.73   |      224458      |     239455
      16  | 53:12.56 |    3:04.64   |      239456      |     253319
      17  | 56:17.45 |    2:57.52   |      253320      |     266646
      18  | 59:15.22 |    4:07.64   |      266647      |     285235
Характеристики диапазона извлечения и сообщения об ошибках
Выбранный диапазон
     Имя файла C:\Install\Эдит Пиаф - Неизвестная Эдит Пиаф (2003)\Эдит Пиаф - Неизвестная Эдит Пиаф (2003).wav
     Пиковый уровень 100.0 %
     Скорость извлечения 2.6 X
     Качество диапазона 100.0 %
     CRC теста 7161D3E1
     CRC копии 7161D3E1
     Копирование... OK
Ошибок не произошло
AccurateRip: сводка
Трек  1  отсутствует в базе данных
Трек  2  отсутствует в базе данных
Трек  3  отсутствует в базе данных
Трек  4  отсутствует в базе данных
Трек  5  отсутствует в базе данных
Трек  6  отсутствует в базе данных
Трек  7  отсутствует в базе данных
Трек  8  отсутствует в базе данных
Трек  9  отсутствует в базе данных
Трек 10  отсутствует в базе данных
Трек 11  отсутствует в базе данных
Трек 12  отсутствует в базе данных
Трек 13  отсутствует в базе данных
Трек 14  отсутствует в базе данных
Трек 15  отсутствует в базе данных
Трек 16  отсутствует в базе данных
Трек 17  отсутствует в базе данных
Трек 18  отсутствует в базе данных
Ни одного трека нет в базе AccurateRip
Конец отчёта
==== Контрольная сумма отчёта 124845EAA3610D32EB699C91E1B0896541534ED76F709905907A5FC8D1D0FBEB ====
Если бы во Франции существовало звание "Народной артистки Французской Республики", то им бы, несомненно, была удостоена Эдит Пиаф. Доступность искусства Пиаф, ее одаренность и мастерство, драматический стиль пения и характерный, только ей присущий тембр, экспрессия исполнительской манеры, богатый красками голос принес Пиаф огромную популярность. Она считалась самой выдающейся шансонье своего поколения, одной из самых оригинальных в истории песенного искусства. Ее нежно называли "Воробышком Парижа" (Пиаф по-французски означает "воробышек", ее настоящая фамилия - Гасьон).
И действительно, в противоположность Марлен Дитрих и Мэрилин Монро, Пиаф никак нельзя было назвать секс-символом своей эпохи. Одетая в поношенный свитер и мятую юбку, она казалась своей простым труженикам парижских предместий, о горестях и радостях которых она пела.
Казалось, искусство Пиаф - явление исключительно французское, недоступное другим национальностям - англичанам, американцам и др. Её первые гастроли в США успеха не имели. Причина лежала на поверхности - англоязычная публика не могла понять и оценить глубину содержания песен Пиаф. И тогда певица решилась на необычный для француженки шаг, в 50-е годы она записала некоторые свои песни на английском языке (на этом диске они представлены на треках 1 - 12), и результат не замедлил сказаться - её повторные гастроли в США обернулись настоящим триумфом, да и английский язык не оказался чем-то чужеродным для песен Пиаф.
Особый интерес представляют песни "Ты не слышишь это" (трек 13) и "Он был нужен" (трек 14). Они были записаны фирмой DRG Records в 1962-году, когда Пиаф уже была тяжело больна. Эти записи долгое время считались утерянными, но в 70-х годах, после смерти Пиаф, президент этой фирмы случайно обнаружил бобины с магнитной пленкой, на которой были записаны эти две песни, на "Блошином рынке" в Париже в коробке из-под обуви. Продавец просил за них смехотворную цену - 5 франков (булочка типа "Хот-Дог" стоит в Париже 10 франков). Так для любителей искусства Пиаф были открыты еще две восхитительные песни. Мы представляем их с большим оркестровым вступлением - настолько хороша музыка французского композитора Дюмона.
На треках 15-18 представлены записи Пиаф, также неизвестные российскому слушателю.
Правила, инструкции, FAQ!!!
Торрент   Скачать торрент Магнет ссылка
Скачать торрент
[ Размер 14.07 КБ / Просмотров 4 ]

Статус
Проверен 
 
Размер  336.7 МБ
Приватный: Нет (DHT включён)
.torrent скачан  2
Как залить торрент? | Как скачать Torrent? | Ошибка в торренте? Качайте магнет  


Профиль     Отправить личное сообщение
   
Страница 1 из 1
Показать сообщения за:  Поле сортировки  
Начать новую тему Ответить на тему


Сейчас эту тему просматривают: нет зарегистрированных пользователей и гости: 1


Вы не можете начинать темы
Вы не можете отвечать на сообщения
Вы не можете редактировать свои сообщения
Вы не можете удалять свои сообщения
Вы не можете добавлять вложения

Перейти:  
Ресурс не предоставляет электронные версии произведений, а занимается лишь коллекционированием и каталогизацией ссылок, присылаемых и публикуемых на форуме нашими читателями. Если вы являетесь правообладателем какого-либо представленного материала и не желаете чтобы ссылка на него находилась в нашем каталоге, свяжитесь с нами и мы незамедлительно удалим её. Файлы для обмена на трекере предоставлены пользователями сайта, и администрация не несёт ответственности за их содержание. Просьба не заливать файлы, защищенные авторскими правами, а также файлы нелегального содержания!