Начать новую тему Ответить на тему
Статистика раздачи
Размер: 985.18 МБ | | Скачали: 0
Сидеров: 5  [0 байт/сек]    Личеров: 1  [0 байт/сек]
Пред. тема | След. тема 

Автор
Сообщение

Ответить с цитатой 

Релиз группа

Стаж: 11 лет 1 месяц 20 дней
Раздал: 506.14 МБ
Скачал: 1 МБ
Ратио: 506.142
Торренты: 14417
VA-100 Chansons Françaises de Légende vol.4
Жанр: Chansons
Год выпуска диска: 2005
Производитель диска: holland(emi)
Аудио кодек: FLAC
Тип рипа: tracks+.cue
Битрейт аудио: lossless
Продолжительность: 04:55:44
Трэклист:
01. Georges Brassens - Chanson pour l'auvergnat
02. Charles Trenet - Coin de rue
03. Edith Piaf - Bravo pour le clown
04. Gilbert Bйcaud - C'йtait mon copain
05. Catherine Sauvage - Les amoureux du Havre
06. Lйo Ferrй - Le pont Mirabeau
07. Charles Aznavour - A t'regarder
08. Juliette Grйco - La chanson de Margaret
09. Mouloudji - Le dйserteur
10. Henri Salvador - Clopin-clopant
11. Yves Montand - Jolie comme une rose
12. Jacqueline Franзois - Mйlancolie
13. Jean Sablon - Tennessee valse
14. Luis Mariano - C'est magnifique
15. Lucienne Delyle - La valse des orgueilleux
16. Dario Moreno - Comйdie
17. Jacques Hйlian - Ma petite rime
18. Andrй Claveau - Ton sourire est dans mon coeur
19. Yvette Giraud - Un petit voyage sentimental
20. Eddie Constantine - Un enfant de la balle
21. Tino Rossi - La fкte du tabac
22. Marie-Josй - Chanson gitane
23. Line Renaud - Pam-pou-dй
24. Bourvil - Par ici les ballots
25. Ray Ventura - Armstrong, Duke Ellington, Cab Calloway
Exact Audio Copy V0.99 prebeta 4 from 23. January 2008
EAC extraction logfile from 1. April 2009, 12:47
Divers / Chansons franзaises de lйgende - Vol 4 - CD1
Used drive : ASUS DRW-2014L1T Adapter: 2 ID: 0
Read mode : Secure
Utilize accurate stream : Yes
Defeat audio cache : Yes
Make use of C2 pointers : No
Read offset correction : 6
Overread into Lead-In and Lead-Out : No
Fill up missing offset samples with silence : Yes
Delete leading and trailing silent blocks : No
Null samples used in CRC calculations : Yes
Used interface : Installed external ASPI interface
Gap handling : Appended to previous track
Used output format : User Defined Encoder
Selected bitrate : 768 kBit/s
Quality : High
Add ID3 tag : No
Command line compressor : C:\Program Files\Exact Audio Copy\FLAC\FLAC.EXE
Additional command line options : -V -8 -T "artist=%a" -T "title=%t" -T "album=%g" -T "date=%y" -T "tracknumber=%n" -T "genre=%m" %s
TOC of the extracted CD
Track | Start | Length | Start sector | End sector
---------------------------------------------------------
1 | 0:00.00 | 3:03.03 | 0 | 13727
2 | 3:03.03 | 3:23.29 | 13728 | 28981
3 | 6:26.32 | 3:06.00 | 28982 | 42931
4 | 9:32.32 | 2:02.34 | 42932 | 52115
5 | 11:34.66 | 2:02.46 | 52116 | 61311
6 | 13:37.37 | 2:57.24 | 61312 | 74610
7 | 16:34.61 | 2:42.69 | 74611 | 86829
8 | 19:17.55 | 4:43.02 | 86830 | 108056
9 | 24:00.57 | 3:06.37 | 108057 | 122043
10 | 27:07.19 | 2:25.32 | 122044 | 132950
11 | 29:32.51 | 3:14.11 | 132951 | 147511
12 | 32:46.62 | 3:12.47 | 147512 | 161958
13 | 35:59.34 | 2:26.47 | 161959 | 172955
14 | 38:26.06 | 2:29.49 | 172956 | 184179
15 | 40:55.55 | 2:55.58 | 184180 | 197362
16 | 43:51.38 | 2:56.66 | 197363 | 210628
17 | 46:48.29 | 2:56.04 | 210629 | 223832
18 | 49:44.33 | 3:11.33 | 223833 | 238190
19 | 52:55.66 | 3:15.22 | 238191 | 252837
20 | 56:11.13 | 2:25.30 | 252838 | 263742
21 | 58:36.43 | 2:43.51 | 263743 | 276018
22 | 61:20.19 | 2:46.29 | 276019 | 288497
23 | 64:06.48 | 2:46.20 | 288498 | 300967
24 | 66:52.68 | 3:19.63 | 300968 | 315955
25 | 70:12.56 | 2:38.44 | 315956 | 327849
Track 1
Filename C:\Новая папка (2)\Chansons franзaises de lйgende - Vol 4 - CD1\01-Georges Brassens - Chanson pour l'auvergnat.wav
Pre-gap length 0:00:02.00
Peak level 83.9 %
Track quality 100.0 %
Test CRC 4F32BA1A
Copy CRC 4F32BA1A
Copy OK
Track 2
Filename C:\Новая папка (2)\Chansons franзaises de lйgende - Vol 4 - CD1\02-Charles Trenet - Coin de rue.wav
Peak level 92.9 %
Track quality 100.0 %
Test CRC A5380F11
Copy CRC A5380F11
Copy OK
Track 3
Filename C:\Новая папка (2)\Chansons franзaises de lйgende - Vol 4 - CD1\03-Edith Piaf - Bravo pour le clown.wav
Peak level 99.9 %
Track quality 100.0 %
Test CRC B585D487
Copy CRC B585D487
Copy OK
Track 4
Filename C:\Новая папка (2)\Chansons franзaises de lйgende - Vol 4 - CD1\04-Gilbert Bйcaud - C'йtait mon copain.wav
Peak level 76.5 %
Track quality 100.0 %
Test CRC 6235FDE0
Copy CRC 6235FDE0
Copy OK
Track 5
Filename C:\Новая папка (2)\Chansons franзaises de lйgende - Vol 4 - CD1\05-Catherine Sauvage - Les amoureux du Havre.wav
Peak level 82.0 %
Track quality 100.0 %
Test CRC 17E2DDCC
Copy CRC 17E2DDCC
Copy OK
Track 6
Filename C:\Новая папка (2)\Chansons franзaises de lйgende - Vol 4 - CD1\06-Lйo Ferrй - Le pont Mirabeau.wav
Peak level 96.5 %
Track quality 99.9 %
Test CRC 3DCF2485
Copy CRC 3DCF2485
Copy OK
Track 7
Filename C:\Новая папка (2)\Chansons franзaises de lйgende - Vol 4 - CD1\07-Charles Aznavour - A t'regarder.wav
Peak level 85.8 %
Track quality 100.0 %
Test CRC BE329CC1
Copy CRC BE329CC1
Copy OK
Track 8
Filename C:\Новая папка (2)\Chansons franзaises de lйgende - Vol 4 - CD1\08-Juliette Grйco - La chanson de Margaret.wav
Peak level 92.0 %
Track quality 100.0 %
Test CRC 2E595A20
Copy CRC 2E595A20
Copy OK
Track 9
Filename C:\Новая папка (2)\Chansons franзaises de lйgende - Vol 4 - CD1\09-Mouloudji - Le dйserteur.wav
Peak level 89.1 %
Track quality 100.0 %
Test CRC 4C82ACA8
Copy CRC 4C82ACA8
Copy OK
Track 10
Filename C:\Новая папка (2)\Chansons franзaises de lйgende - Vol 4 - CD1\10-Henri Salvador - Clopin-clopant.wav
Peak level 93.5 %
Track quality 99.9 %
Test CRC FFC00401
Copy CRC FFC00401
Copy OK
Track 11
Filename C:\Новая папка (2)\Chansons franзaises de lйgende - Vol 4 - CD1\11-Yves Montand - Jolie comme une rose.wav
Peak level 97.1 %
Track quality 100.0 %
Test CRC 4629A26D
Copy CRC 4629A26D
Copy OK
Track 12
Filename C:\Новая папка (2)\Chansons franзaises de lйgende - Vol 4 - CD1\12-Jacqueline Franзois - Mйlancolie.wav
Peak level 90.0 %
Track quality 100.0 %
Test CRC 3028E71E
Copy CRC 3028E71E
Copy OK
Track 13
Filename C:\Новая папка (2)\Chansons franзaises de lйgende - Vol 4 - CD1\13-Jean Sablon - Tennessee valse.wav
Peak level 88.5 %
Track quality 100.0 %
Test CRC 36012774
Copy CRC 36012774
Copy OK
Track 14
Filename C:\Новая папка (2)\Chansons franзaises de lйgende - Vol 4 - CD1\14-Luis Mariano - C'est magnifique.wav
Peak level 90.6 %
Track quality 100.0 %
Test CRC 8734EB77
Copy CRC 8734EB77
Copy OK
Track 15
Filename C:\Новая папка (2)\Chansons franзaises de lйgende - Vol 4 - CD1\15-Lucienne Delyle - La valse des orgueilleux.wav
Peak level 81.2 %
Track quality 100.0 %
Test CRC 972A22F4
Copy CRC 972A22F4
Copy OK
Track 16
Filename C:\Новая папка (2)\Chansons franзaises de lйgende - Vol 4 - CD1\16-Dario Moreno - Comйdie.wav
Peak level 87.6 %
Track quality 100.0 %
Test CRC DC1BAA95
Copy CRC DC1BAA95
Copy OK
Track 17
Filename C:\Новая папка (2)\Chansons franзaises de lйgende - Vol 4 - CD1\17-Jacques Hйlian - Ma petite rime.wav
Peak level 92.1 %
Track quality 100.0 %
Test CRC 3FCA58D4
Copy CRC 3FCA58D4
Copy OK
Track 18
Filename C:\Новая папка (2)\Chansons franзaises de lйgende - Vol 4 - CD1\18-Andrй Claveau - Ton sourire est dans mon coeur.wav
Peak level 90.9 %
Track quality 100.0 %
Test CRC A8D020E3
Copy CRC A8D020E3
Copy OK
Track 19
Filename C:\Новая папка (2)\Chansons franзaises de lйgende - Vol 4 - CD1\19-Yvette Giraud - Un petit voyage sentimental.wav
Peak level 97.7 %
Track quality 100.0 %
Test CRC 7D592E36
Copy CRC 7D592E36
Copy OK
Track 20
Filename C:\Новая папка (2)\Chansons franзaises de lйgende - Vol 4 - CD1\20-Eddie Constantine - Un enfant de la balle.wav
Peak level 85.3 %
Track quality 100.0 %
Test CRC A4A36999
Copy CRC A4A36999
Copy OK
Track 21
Filename C:\Новая папка (2)\Chansons franзaises de lйgende - Vol 4 - CD1\21-Tino Rossi - La fкte du tabac.wav
Peak level 88.9 %
Track quality 99.9 %
Test CRC 650E9F5A
Copy CRC 650E9F5A
Copy OK
Track 22
Filename C:\Новая папка (2)\Chansons franзaises de lйgende - Vol 4 - CD1\22-Marie-Josй - Chanson gitane.wav
Peak level 95.6 %
Track quality 99.9 %
Test CRC BF2579D6
Copy CRC BF2579D6
Copy OK
Track 23
Filename C:\Новая папка (2)\Chansons franзaises de lйgende - Vol 4 - CD1\23-Line Renaud - Pam-pou-dй.wav
Peak level 87.2 %
Track quality 100.0 %
Test CRC 1CB32C5F
Copy CRC 1CB32C5F
Copy OK
Track 24
Filename C:\Новая папка (2)\Chansons franзaises de lйgende - Vol 4 - CD1\24-Bourvil - Par ici les ballots.wav
Peak level 76.8 %
Track quality 100.0 %
Test CRC E8A45405
Copy CRC E8A45405
Copy OK
Track 25
Filename C:\Новая папка (2)\Chansons franзaises de lйgende - Vol 4 - CD1\25-Ray Ventura - Armstrong, Duke Ellington, Cab Calloway.wav
Peak level 79.4 %
Track quality 100.0 %
Test CRC 08EED4D2
Copy CRC 08EED4D2
Copy OK
No errors occurred
End of status report
01. Edith Piaf - La goualante du pauvre Jean
02. Lucienne Delyle - Judas
03. Lйo Ferrй - Graine d'amour
04. Jean Sablon - J'ai peur de l'automne
05. Armand Mestral - Les cavaliers du ciel
06. Yvette Giraud - Rкver de vous
07. Andrй Claveau - Mon coeur est un violon
08. Charles Trenet - Paule sur mes йpaules
09. Annie Cordy - La fille du cov-bois
10. Patachou - Le joueur de luth
11. Les Frиres Jacques - Le gйnйral Castagnetas
12. Bourvil - C'est une gamine charmante
13. Tino Rossi - Oh ! Mon papa
14. Georges Brassens - Les sabots d'Hйlиne
15. Jacqueline Franзois - Trois fois merci
16. Patrice & Mario - Vaya con dios
17. Dario Moreno - Istanbul
18. Line Renaud - Nous deux
19. Philippe Clay - Le grisbi
20. Luis Mariano - Jardins d'Andalousie
21. Renйe Lebas - Oщ es-tu, mon amour ?
22. Yves Montand - Quand un soldat
23. Eddie Constantine - Tous mes rкves passйs
24. Cora Vaucaire - Frйdй
25. Jacques Hйlian - Musique en tкte
Exact Audio Copy V0.99 prebeta 4 from 23. January 2008
EAC extraction logfile from 1. April 2009, 13:18
Divers / Chansons franзaises de lйgende - Vol 4 - CD2
Used drive : ASUS DRW-2014L1T Adapter: 2 ID: 0
Read mode : Secure
Utilize accurate stream : Yes
Defeat audio cache : Yes
Make use of C2 pointers : No
Read offset correction : 6
Overread into Lead-In and Lead-Out : No
Fill up missing offset samples with silence : Yes
Delete leading and trailing silent blocks : No
Null samples used in CRC calculations : Yes
Used interface : Installed external ASPI interface
Gap handling : Appended to previous track
Used output format : User Defined Encoder
Selected bitrate : 768 kBit/s
Quality : High
Add ID3 tag : No
Command line compressor : C:\Program Files\Exact Audio Copy\FLAC\FLAC.EXE
Additional command line options : -V -8 -T "artist=%a" -T "title=%t" -T "album=%g" -T "date=%y" -T "tracknumber=%n" -T "genre=%m" %s
TOC of the extracted CD
Track | Start | Length | Start sector | End sector
---------------------------------------------------------
1 | 0:00.00 | 2:04.06 | 0 | 9305
2 | 2:04.06 | 2:46.40 | 9306 | 21795
3 | 4:50.46 | 3:13.06 | 21796 | 36276
4 | 8:03.52 | 2:54.32 | 36277 | 49358
5 | 10:58.09 | 3:26.01 | 49359 | 64809
6 | 14:24.10 | 3:19.29 | 64810 | 79763
7 | 17:43.39 | 3:33.03 | 79764 | 95741
8 | 21:16.42 | 2:16.15 | 95742 | 105956
9 | 23:32.57 | 3:00.54 | 105957 | 119510
10 | 26:33.36 | 3:00.00 | 119511 | 133010
11 | 29:33.36 | 3:36.59 | 133011 | 149269
12 | 33:10.20 | 2:25.64 | 149270 | 160208
13 | 35:36.09 | 2:48.30 | 160209 | 172838
14 | 38:24.39 | 2:45.07 | 172839 | 185220
15 | 41:09.46 | 3:16.43 | 185221 | 199963
16 | 44:26.14 | 3:08.15 | 199964 | 214078
17 | 47:34.29 | 2:44.56 | 214079 | 226434
18 | 50:19.10 | 2:28.24 | 226435 | 237558
19 | 52:47.34 | 3:35.19 | 237559 | 253702
20 | 56:22.53 | 3:24.60 | 253703 | 269062
21 | 59:47.38 | 3:11.39 | 269063 | 283426
22 | 62:59.02 | 1:51.69 | 283427 | 291820
23 | 64:50.71 | 3:24.17 | 291821 | 307137
24 | 68:15.13 | 2:56.70 | 307138 | 320407
25 | 71:12.08 | 2:19.24 | 320408 | 330856
Track 1
Filename C:\Новая папка (2)\Chansons franзaises de lйgende - Vol 4 - CD2\01-Edith Piaf - La goualante du pauvre Jean.wav
Pre-gap length 0:00:02.00
Peak level 86.2 %
Track quality 100.0 %
Test CRC 4653E23F
Copy CRC 4653E23F
Copy OK
Track 2
Filename C:\Новая папка (2)\Chansons franзaises de lйgende - Vol 4 - CD2\02-Lucienne Delyle - Judas.wav
Pre-gap length 0:02:00.16
Peak level 93.3 %
Track quality 100.0 %
Test CRC 57DFAC2A
Copy CRC 57DFAC2A
Copy OK
Track 3
Filename C:\Новая папка (2)\Chansons franзaises de lйgende - Vol 4 - CD2\03-Lйo Ferrй - Graine d'amour.wav
Peak level 90.0 %
Track quality 100.0 %
Test CRC AB1E1EE5
Copy CRC AB1E1EE5
Copy OK
Track 4
Filename C:\Новая папка (2)\Chansons franзaises de lйgende - Vol 4 - CD2\04-Jean Sablon - J'ai peur de l'automne.wav
Peak level 91.3 %
Track quality 100.0 %
Test CRC 6988E65E
Copy CRC 6988E65E
Copy OK
Track 5
Filename C:\Новая папка (2)\Chansons franзaises de lйgende - Vol 4 - CD2\05-Armand Mestral - Les cavaliers du ciel.wav
Peak level 85.4 %
Track quality 100.0 %
Test CRC BFEFD8EC
Copy CRC BFEFD8EC
Copy OK
Track 6
Filename C:\Новая папка (2)\Chansons franзaises de lйgende - Vol 4 - CD2\06-Yvette Giraud - Rкver de vous.wav
Peak level 93.1 %
Track quality 100.0 %
Test CRC DBF27EAB
Copy CRC DBF27EAB
Copy OK
Track 7
Filename C:\Новая папка (2)\Chansons franзaises de lйgende - Vol 4 - CD2\07-Andrй Claveau - Mon coeur est un violon.wav
Peak level 96.5 %
Track quality 100.0 %
Test CRC 82C766F9
Copy CRC 82C766F9
Copy OK
Track 8
Filename C:\Новая папка (2)\Chansons franзaises de lйgende - Vol 4 - CD2\08-Charles Trenet - Paule sur mes йpaules.wav
Peak level 93.4 %
Track quality 100.0 %
Test CRC FA686148
Copy CRC FA686148
Copy OK
Track 9
Filename C:\Новая папка (2)\Chansons franзaises de lйgende - Vol 4 - CD2\09-Annie Cordy - La fille du cov-bois.wav
Peak level 88.8 %
Track quality 100.0 %
Test CRC 35A12F9C
Copy CRC 35A12F9C
Copy OK
Track 10
Filename C:\Новая папка (2)\Chansons franзaises de lйgende - Vol 4 - CD2\10-Patachou - Le joueur de luth.wav
Peak level 83.7 %
Track quality 99.9 %
Test CRC 8502A9F0
Copy CRC 8502A9F0
Copy OK
Track 11
Filename C:\Новая папка (2)\Chansons franзaises de lйgende - Vol 4 - CD2\11-Les Frиres Jacques - Le gйnйral Castagnetas.wav
Peak level 88.5 %
Track quality 100.0 %
Test CRC 4E3A66B0
Copy CRC 4E3A66B0
Copy OK
Track 12
Filename C:\Новая папка (2)\Chansons franзaises de lйgende - Vol 4 - CD2\12-Bourvil - C'est une gamine charmante.wav
Peak level 88.0 %
Track quality 100.0 %
Test CRC C2A66311
Copy CRC C2A66311
Copy OK
Track 13
Filename C:\Новая папка (2)\Chansons franзaises de lйgende - Vol 4 - CD2\13-Tino Rossi - Oh ! Mon papa.wav
Peak level 81.0 %
Track quality 100.0 %
Test CRC 7992D896
Copy CRC 7992D896
Copy OK
Track 14
Filename C:\Новая папка (2)\Chansons franзaises de lйgende - Vol 4 - CD2\14-Georges Brassens - Les sabots d'Hйlиne.wav
Peak level 83.1 %
Track quality 100.0 %
Test CRC 488E134A
Copy CRC 488E134A
Copy OK
Track 15
Filename C:\Новая папка (2)\Chansons franзaises de lйgende - Vol 4 - CD2\15-Jacqueline Franзois - Trois fois merci.wav
Peak level 84.3 %
Track quality 99.9 %
Test CRC 270F1C13
Copy CRC 270F1C13
Copy OK
Track 16
Filename C:\Новая папка (2)\Chansons franзaises de lйgende - Vol 4 - CD2\16-Patrice & Mario - Vaya con dios.wav
Peak level 83.5 %
Track quality 100.0 %
Test CRC E5CD9CFB
Copy CRC E5CD9CFB
Copy OK
Track 17
Filename C:\Новая папка (2)\Chansons franзaises de lйgende - Vol 4 - CD2\17-Dario Moreno - Istanbul.wav
Peak level 92.7 %
Track quality 100.0 %
Test CRC C28A3499
Copy CRC C28A3499
Copy OK
Track 18
Filename C:\Новая папка (2)\Chansons franзaises de lйgende - Vol 4 - CD2\18-Line Renaud - Nous deux.wav
Peak level 84.6 %
Track quality 100.0 %
Test CRC 5670690A
Copy CRC 5670690A
Copy OK
Track 19
Filename C:\Новая папка (2)\Chansons franзaises de lйgende - Vol 4 - CD2\19-Philippe Clay - Le grisbi.wav
Peak level 84.8 %
Track quality 100.0 %
Test CRC 2EB03760
Copy CRC 2EB03760
Copy OK
Track 20
Filename C:\Новая папка (2)\Chansons franзaises de lйgende - Vol 4 - CD2\20-Luis Mariano - Jardins d'Andalousie.wav
Peak level 80.9 %
Track quality 100.0 %
Test CRC C6632685
Copy CRC C6632685
Copy OK
Track 21
Filename C:\Новая папка (2)\Chansons franзaises de lйgende - Vol 4 - CD2\21-Renйe Lebas - Oщ es-tu, mon amour .wav
Peak level 89.4 %
Track quality 100.0 %
Test CRC 746B1310
Copy CRC 746B1310
Copy OK
Track 22
Filename C:\Новая папка (2)\Chansons franзaises de lйgende - Vol 4 - CD2\22-Yves Montand - Quand un soldat.wav
Peak level 87.1 %
Track quality 99.9 %
Test CRC C599F69A
Copy CRC C599F69A
Copy OK
Track 23
Filename C:\Новая папка (2)\Chansons franзaises de lйgende - Vol 4 - CD2\23-Eddie Constantine - Tous mes rкves passйs.wav
Peak level 85.9 %
Track quality 99.9 %
Test CRC 21BA7D4E
Copy CRC 21BA7D4E
Copy OK
Track 24
Filename C:\Новая папка (2)\Chansons franзaises de lйgende - Vol 4 - CD2\24-Cora Vaucaire - Frйdй.wav
Peak level 94.3 %
Track quality 100.0 %
Test CRC D50F98D7
Copy CRC D50F98D7
Copy OK
Track 25
Filename C:\Новая папка (2)\Chansons franзaises de lйgende - Vol 4 - CD2\25-Jacques Hйlian - Musique en tкte.wav
Peak level 82.7 %
Track quality 100.0 %
Test CRC 042BD880
Copy CRC 042BD880
Copy OK
No errors occurred
End of status report
01. Yves Montand - Mont pot', le gitan
02. Georges Brassens - La priиre
03. Edith Piaf - Enfin, le printemps
04. Lйo Ferrй - Mon petit voyou
05. Charles Trenet - Vous qui passez sans me voir
06. Jacqueline Franзois - Tu ne peux pas te figurer
07. Andrй Claveau - Au bord de la Tamise
08. Georges Guйtary - Bolйro
09. Armand Mestral - O' Cangaceiro
10. Yvette Giraud - Un petit bout de satin
11. Jean Sablon - Ciel de Paris
12. Luis Mariano - Quand on est deux amis
13. Renйe Lebas - On s'aimera quelques jours
14. Patrice & Mario - Rhapsodie suйdoise
15. Eddie Constantine - Aimer comme je t'aime
16. Charles Aznavour - Viens au creux de mon йpaule
17. Patachou - Histoire de roses
18. Mouloudji - Un jour tu verras
19. Henri Salvador - Adieu foulards, adieu madras
20. Jacques Hйlian - Les carabiniers de Castille
21. Bourvil - Prends mon bouquet
22. Lucienne Delyle - Mets deux thunes dans l'bastringue
23. Andrй Dassary - Dans mon coeur
24. Dario Moreno - C'est l'aurore
25. Annie Cordy - Lйon
Exact Audio Copy V0.99 prebeta 4 from 23. January 2008
EAC extraction logfile from 1. April 2009, 13:58
Divers / Chansons franзaises de lйgende - Vol 4 - CD3
Used drive : ASUS DRW-2014L1T Adapter: 2 ID: 0
Read mode : Secure
Utilize accurate stream : Yes
Defeat audio cache : Yes
Make use of C2 pointers : No
Read offset correction : 6
Overread into Lead-In and Lead-Out : No
Fill up missing offset samples with silence : Yes
Delete leading and trailing silent blocks : No
Null samples used in CRC calculations : Yes
Used interface : Installed external ASPI interface
Gap handling : Appended to previous track
Used output format : User Defined Encoder
Selected bitrate : 768 kBit/s
Quality : High
Add ID3 tag : No
Command line compressor : C:\Program Files\Exact Audio Copy\FLAC\FLAC.EXE
Additional command line options : -V -8 -T "artist=%a" -T "title=%t" -T "album=%g" -T "date=%y" -T "tracknumber=%n" -T "genre=%m" %s
TOC of the extracted CD
Track | Start | Length | Start sector | End sector
---------------------------------------------------------
1 | 0:00.00 | 2:50.72 | 0 | 12821
2 | 2:50.72 | 3:06.11 | 12822 | 26782
3 | 5:57.08 | 2:23.20 | 26783 | 37527
4 | 8:20.28 | 3:32.47 | 37528 | 53474
5 | 11:53.00 | 3:19.50 | 53475 | 68449
6 | 15:12.50 | 2:57.09 | 68450 | 81733
7 | 18:09.59 | 2:47.12 | 81734 | 94270
8 | 20:56.71 | 3:19.36 | 94271 | 109231
9 | 24:16.32 | 3:23.62 | 109232 | 124518
10 | 27:40.19 | 2:45.49 | 124519 | 136942
11 | 30:25.68 | 3:10.50 | 136943 | 151242
12 | 33:36.43 | 2:35.23 | 151243 | 162890
13 | 36:11.66 | 2:52.29 | 162891 | 175819
14 | 39:04.20 | 2:22.60 | 175820 | 186529
15 | 41:27.05 | 3:28.08 | 186530 | 202137
16 | 44:55.13 | 3:14.18 | 202138 | 216705
17 | 48:09.31 | 2:41.02 | 216706 | 228782
18 | 50:50.33 | 3:31.16 | 228783 | 244623
19 | 54:21.49 | 2:18.70 | 244624 | 255043
20 | 56:40.44 | 2:51.59 | 255044 | 267927
21 | 59:32.28 | 3:19.33 | 267928 | 282885
22 | 62:51.61 | 2:17.42 | 282886 | 293202
23 | 65:09.28 | 3:27.20 | 293203 | 308747
24 | 68:36.48 | 2:41.29 | 308748 | 320851
25 | 71:18.02 | 2:58.26 | 320852 | 334227
Track 1
Filename C:\Новая папка (2)\Chansons franзaises de lйgende - Vol 4 - CD3\01-Yves Montand - Mont pot', le gitan.wav
Pre-gap length 0:00:02.00
Peak level 85.9 %
Track quality 100.0 %
Test CRC EF4DF586
Copy CRC EF4DF586
Copy OK
Track 2
Filename C:\Новая папка (2)\Chansons franзaises de lйgende - Vol 4 - CD3\02-Georges Brassens - La priиre.wav
Pre-gap length 0:02:47.07
Peak level 88.5 %
Track quality 100.0 %
Test CRC 36312DE2
Copy CRC 36312DE2
Copy OK
Track 3
Filename C:\Новая папка (2)\Chansons franзaises de lйgende - Vol 4 - CD3\03-Edith Piaf - Enfin, le printemps.wav
Peak level 94.0 %
Track quality 100.0 %
Test CRC 35C26795
Copy CRC 35C26795
Copy OK
Track 4
Filename C:\Новая папка (2)\Chansons franзaises de lйgende - Vol 4 - CD3\04-Lйo Ferrй - Mon petit voyou.wav
Peak level 96.0 %
Track quality 100.0 %
Test CRC 5A7049DC
Copy CRC 5A7049DC
Copy OK
Track 5
Filename C:\Новая папка (2)\Chansons franзaises de lйgende - Vol 4 - CD3\05-Charles Trenet - Vous qui passez sans me voir.wav
Peak level 86.0 %
Track quality 100.0 %
Test CRC E65DA986
Copy CRC E65DA986
Copy OK
Track 6
Filename C:\Новая папка (2)\Chansons franзaises de lйgende - Vol 4 - CD3\06-Jacqueline Franзois - Tu ne peux pas te figurer.wav
Peak level 92.2 %
Track quality 100.0 %
Test CRC 8700E616
Copy CRC 8700E616
Copy OK
Track 7
Filename C:\Новая папка (2)\Chansons franзaises de lйgende - Vol 4 - CD3\07-Andrй Claveau - Au bord de la Tamise.wav
Peak level 90.8 %
Track quality 100.0 %
Test CRC 375162CC
Copy CRC 375162CC
Copy OK
Track 8
Filename C:\Новая папка (2)\Chansons franзaises de lйgende - Vol 4 - CD3\08-Georges Guйtary - Bolйro.wav
Peak level 84.9 %
Track quality 100.0 %
Test CRC 544304E8
Copy CRC 544304E8
Copy OK
Track 9
Filename C:\Новая папка (2)\Chansons franзaises de lйgende - Vol 4 - CD3\09-Armand Mestral - O' Cangaceiro.wav
Peak level 86.1 %
Track quality 100.0 %
Test CRC 8F00328E
Copy CRC 8F00328E
Copy OK
Track 10
Filename C:\Новая папка (2)\Chansons franзaises de lйgende - Vol 4 - CD3\10-Yvette Giraud - Un petit bout de satin.wav
Peak level 84.4 %
Track quality 100.0 %
Test CRC F9DBEAD8
Copy CRC F9DBEAD8
Copy OK
Track 11
Filename C:\Новая папка (2)\Chansons franзaises de lйgende - Vol 4 - CD3\11-Jean Sablon - Ciel de Paris.wav
Peak level 96.3 %
Track quality 100.0 %
Test CRC 00922C91
Copy CRC 00922C91
Copy OK
Track 12
Filename C:\Новая папка (2)\Chansons franзaises de lйgende - Vol 4 - CD3\12-Luis Mariano - Quand on est deux amis.wav
Peak level 88.3 %
Track quality 100.0 %
Test CRC 87402895
Copy CRC 87402895
Copy OK
Track 13
Filename C:\Новая папка (2)\Chansons franзaises de lйgende - Vol 4 - CD3\13-Renйe Lebas - On s'aimera quelques jours.wav
Peak level 92.1 %
Track quality 100.0 %
Test CRC 2E91ED68
Copy CRC 2E91ED68
Copy OK
Track 14
Filename C:\Новая папка (2)\Chansons franзaises de lйgende - Vol 4 - CD3\14-Patrice & Mario - Rhapsodie suйdoise.wav
Peak level 83.9 %
Track quality 99.9 %
Test CRC 8433DAD6
Copy CRC 8433DAD6
Copy OK
Track 15
Filename C:\Новая папка (2)\Chansons franзaises de lйgende - Vol 4 - CD3\15-Eddie Constantine - Aimer comme je t'aime.wav
Peak level 91.1 %
Track quality 100.0 %
Test CRC 07EBB074
Copy CRC 07EBB074
Copy OK
Track 16
Filename C:\Новая папка (2)\Chansons franзaises de lйgende - Vol 4 - CD3\16-Charles Aznavour - Viens au creux de mon йpaule.wav
Peak level 99.9 %
Track quality 99.9 %
Test CRC C379A411
Copy CRC C379A411
Copy OK
Track 17
Filename C:\Новая папка (2)\Chansons franзaises de lйgende - Vol 4 - CD3\17-Patachou - Histoire de roses.wav
Peak level 95.0 %
Track quality 99.9 %
Test CRC A9333B7E
Copy CRC A9333B7E
Copy OK
Track 18
Filename C:\Новая папка (2)\Chansons franзaises de lйgende - Vol 4 - CD3\18-Mouloudji - Un jour tu verras.wav
Peak level 99.2 %
Track quality 100.0 %
Test CRC D5C06E4A
Copy CRC D5C06E4A
Copy OK
Track 19
Filename C:\Новая папка (2)\Chansons franзaises de lйgende - Vol 4 - CD3\19-Henri Salvador - Adieu foulards, adieu madras.wav
Peak level 97.0 %
Track quality 100.0 %
Test CRC 79BAA378
Copy CRC 79BAA378
Copy OK
Track 20
Filename C:\Новая папка (2)\Chansons franзaises de lйgende - Vol 4 - CD3\20-Jacques Hйlian - Les carabiniers de Castille.wav
Peak level 86.7 %
Track quality 100.0 %
Test CRC 6C46EF5D
Copy CRC 6C46EF5D
Copy OK
Track 21
Filename C:\Новая папка (2)\Chansons franзaises de lйgende - Vol 4 - CD3\21-Bourvil - Prends mon bouquet.wav
Peak level 86.8 %
Track quality 100.0 %
Test CRC 0A08E136
Copy CRC 0A08E136
Copy OK
Track 22
Filename C:\Новая папка (2)\Chansons franзaises de lйgende - Vol 4 - CD3\22-Lucienne Delyle - Mets deux thunes dans l'bastringue.wav
Peak level 83.7 %
Track quality 100.0 %
Test CRC 13D8DE12
Copy CRC 13D8DE12
Copy OK
Track 23
Filename C:\Новая папка (2)\Chansons franзaises de lйgende - Vol 4 - CD3\23-Andrй Dassary - Dans mon coeur.wav
Peak level 96.1 %
Track quality 100.0 %
Test CRC 3DC791DB
Copy CRC 3DC791DB
Copy OK
Track 24
Filename C:\Новая папка (2)\Chansons franзaises de lйgende - Vol 4 - CD3\24-Dario Moreno - C'est l'aurore.wav
Peak level 82.3 %
Track quality 99.9 %
Test CRC 44B03E41
Copy CRC 44B03E41
Copy OK
Track 25
Filename C:\Новая папка (2)\Chansons franзaises de lйgende - Vol 4 - CD3\25-Annie Cordy - Lйon.wav
Peak level 88.3 %
Track quality 99.9 %
Test CRC 12C1DE47
Copy CRC 12C1DE47
Copy OK
No errors occurred
End of status report
01. Catherine Sauvage - Le piano du pauvre
02. Mouloudji - Le mal de Paris
03. Luis Mariano - I love Paris
04. Yves Montand - J'aime t'embrasser
05. Juliette Grйco - Les dames de la poste
06. Lйo Ferrй - L'homme
07. Georges Brassens - Une jolie fleur
08. Edith Piaf - Johnny, tu n'es pas un ange
09. Andrй Claveau - Bon anniversaire
10. Jean Sablon - Rhum & Coca Cola
11. Patachou - Rue Lepic
12. Jacques Pills - Tout зa parce qu'au bois de Chaville
13. Armand Mestral - La fкte des fleurs
14. Lucienne Delyle - Charmaine
15. Les Fиres Jacques - La truite
16. Charles Aznavour - Je veux te dire adieu
17. Maurice Chevalier - Quand le bвtiment va
18. Georges Ulmer - Marie, petit bйguin du mois de mai
19. Line Renaud - Le soir
20. Andrй Dassary - L'auberge qui chante
21. Ray Ventura - A la mi-aoыt
22. Jacques Hйlian - Je te-le-le
23. Yvette Giraud - Un homme est un homme
24. Jacqueline Franзois - Moi, je dors prиs de la Seine
25. Bourvil - Caroline, Caroline
Exact Audio Copy V0.99 prebeta 4 from 23. January 2008
EAC extraction logfile from 1. April 2009, 1:32
Divers / Chansons franзaises de lйgende - Vol 4 - CD4
Used drive : ASUS DRW-2014L1T Adapter: 2 ID: 0
Read mode : Secure
Utilize accurate stream : Yes
Defeat audio cache : Yes
Make use of C2 pointers : No
Read offset correction : 6
Overread into Lead-In and Lead-Out : No
Fill up missing offset samples with silence : Yes
Delete leading and trailing silent blocks : No
Null samples used in CRC calculations : Yes
Used interface : Installed external ASPI interface
Gap handling : Appended to previous track
Used output format : User Defined Encoder
Selected bitrate : 768 kBit/s
Quality : High
Add ID3 tag : No
Command line compressor : C:\Program Files\Exact Audio Copy\FLAC\FLAC.EXE
Additional command line options : -V -8 -T "artist=%a" -T "title=%t" -T "album=%g" -T "date=%y" -T "tracknumber=%n" -T "genre=%m" %s
TOC of the extracted CD
Track | Start | Length | Start sector | End sector
---------------------------------------------------------
1 | 0:00.00 | 2:42.03 | 0 | 12152
2 | 2:42.03 | 3:24.00 | 12153 | 27452
3 | 6:06.03 | 2:41.53 | 27453 | 39580
4 | 8:47.56 | 3:34.47 | 39581 | 55677
5 | 12:22.28 | 3:22.03 | 55678 | 70830
6 | 15:44.31 | 2:45.66 | 70831 | 83271
7 | 18:30.22 | 2:42.32 | 83272 | 95453
8 | 21:12.54 | 2:12.06 | 95454 | 105359
9 | 23:24.60 | 3:29.47 | 105360 | 121081
10 | 26:54.32 | 3:14.40 | 121082 | 135671
11 | 30:08.72 | 2:36.72 | 135672 | 147443
12 | 32:45.69 | 3:27.68 | 147444 | 163036
13 | 36:13.62 | 3:21.14 | 163037 | 178125
14 | 39:35.01 | 3:15.08 | 178126 | 192758
15 | 42:50.09 | 4:01.09 | 192759 | 210842
16 | 46:51.18 | 2:20.68 | 210843 | 221410
17 | 49:12.11 | 2:30.49 | 221411 | 232709
18 | 51:42.60 | 2:48.11 | 232710 | 245320
19 | 54:30.71 | 2:56.19 | 245321 | 258539
20 | 57:27.15 | 3:15.12 | 258540 | 273176
21 | 60:42.27 | 2:34.26 | 273177 | 284752
22 | 63:16.53 | 3:02.41 | 284753 | 298443
23 | 66:19.19 | 2:51.07 | 298444 | 311275
24 | 69:10.26 | 2:57.28 | 311276 | 324578
25 | 72:07.54 | 2:57.68 | 324579 | 337921
Track 1
Filename C:\Новая папка (2)\Chansons franзaises de lйgende - Vol 4 - CD4\01-Catherine Sauvage - Le piano du pauvre.wav
Pre-gap length 0:00:02.00
Peak level 86.1 %
Track quality 99.9 %
Test CRC 108A7B25
Copy CRC 108A7B25
Copy OK
Track 2
Filename C:\Новая папка (2)\Chansons franзaises de lйgende - Vol 4 - CD4\02-Mouloudji - Le mal de Paris.wav
Peak level 83.5 %
Track quality 100.0 %
Test CRC 86EC94B2
Copy CRC 86EC94B2
Copy OK
Track 3
Filename C:\Новая папка (2)\Chansons franзaises de lйgende - Vol 4 - CD4\03-Luis Mariano - I love Paris.wav
Peak level 85.6 %
Track quality 99.9 %
Test CRC 014312CB
Copy CRC 014312CB
Copy OK
Track 4
Filename C:\Новая папка (2)\Chansons franзaises de lйgende - Vol 4 - CD4\04-Yves Montand - J'aime t'embrasser.wav
Peak level 77.7 %
Track quality 100.0 %
Test CRC 0C0ECAD9
Copy CRC 0C0ECAD9
Copy OK
Track 5
Filename C:\Новая папка (2)\Chansons franзaises de lйgende - Vol 4 - CD4\05-Juliette Grйco - Les dames de la poste.wav
Peak level 92.1 %
Track quality 100.0 %
Test CRC 0B1A6A97
Copy CRC 0B1A6A97
Copy OK
Track 6
Filename C:\Новая папка (2)\Chansons franзaises de lйgende - Vol 4 - CD4\06-Lйo Ferrй - L'homme.wav
Peak level 87.2 %
Track quality 100.0 %
Test CRC BF749226
Copy CRC BF749226
Copy OK
Track 7
Filename C:\Новая папка (2)\Chansons franзaises de lйgende - Vol 4 - CD4\07-Georges Brassens - Une jolie fleur.wav
Peak level 83.1 %
Track quality 100.0 %
Test CRC CDB80229
Copy CRC CDB80229
Copy OK
Track 8
Filename C:\Новая папка (2)\Chansons franзaises de lйgende - Vol 4 - CD4\08-Edith Piaf - Johnny, tu n'es pas un ange.wav
Peak level 99.9 %
Track quality 100.0 %
Test CRC 71FD5D97
Copy CRC 71FD5D97
Copy OK
Track 9
Filename C:\Новая папка (2)\Chansons franзaises de lйgende - Vol 4 - CD4\09-Andrй Claveau - Bon anniversaire.wav
Peak level 83.8 %
Track quality 100.0 %
Test CRC 61E3CD4F
Copy CRC 61E3CD4F
Copy OK
Track 10
Filename C:\Новая папка (2)\Chansons franзaises de lйgende - Vol 4 - CD4\10-Jean Sablon - Rhum & Coca Cola.wav
Peak level 100.0 %
Track quality 100.0 %
Test CRC 132A4164
Copy CRC 132A4164
Copy OK
Track 11
Filename C:\Новая папка (2)\Chansons franзaises de lйgende - Vol 4 - CD4\11-Patachou - Rue Lepic.wav
Peak level 84.7 %
Track quality 100.0 %
Test CRC 32CAD7D1
Copy CRC 32CAD7D1
Copy OK
Track 12
Filename C:\Новая папка (2)\Chansons franзaises de lйgende - Vol 4 - CD4\12-Jacques Pills - Tout зa parce qu'au bois de Chaville.wav
Peak level 86.0 %
Track quality 100.0 %
Test CRC AF2126E2
Copy CRC AF2126E2
Copy OK
Track 13
Filename C:\Новая папка (2)\Chansons franзaises de lйgende - Vol 4 - CD4\13-Armand Mestral - La fкte des fleurs.wav
Peak level 83.3 %
Track quality 100.0 %
Test CRC EABA92C3
Copy CRC EABA92C3
Copy OK
Track 14
Filename C:\Новая папка (2)\Chansons franзaises de lйgende - Vol 4 - CD4\14-Lucienne Delyle - Charmaine.wav
Peak level 99.9 %
Track quality 100.0 %
Test CRC 619510D4
Copy CRC 619510D4
Copy OK
Track 15
Filename C:\Новая папка (2)\Chansons franзaises de lйgende - Vol 4 - CD4\15-Les Fиres Jacques - La truite.wav
Peak level 89.4 %
Track quality 100.0 %
Test CRC B3F6369E
Copy CRC B3F6369E
Copy OK
Track 16
Filename C:\Новая папка (2)\Chansons franзaises de lйgende - Vol 4 - CD4\16-Charles Aznavour - Je veux te dire adieu.wav
Peak level 94.1 %
Track quality 100.0 %
Test CRC A629582B
Copy CRC A629582B
Copy OK
Track 17
Filename C:\Новая папка (2)\Chansons franзaises de lйgende - Vol 4 - CD4\17-Maurice Chevalier - Quand le bвtiment va.wav
Peak level 85.6 %
Track quality 100.0 %
Test CRC C9B23A83
Copy CRC C9B23A83
Copy OK
Track 18
Filename C:\Новая папка (2)\Chansons franзaises de lйgende - Vol 4 - CD4\18-Georges Ulmer - Marie, petit bйguin du mois de mai.wav
Peak level 91.3 %
Track quality 100.0 %
Test CRC 28CC14C7
Copy CRC 28CC14C7
Copy OK
Track 19
Filename C:\Новая папка (2)\Chansons franзaises de lйgende - Vol 4 - CD4\19-Line Renaud - Le soir.wav
Peak level 85.3 %
Track quality 100.0 %
Test CRC FA8DDC4A
Copy CRC FA8DDC4A
Copy OK
Track 20
Filename C:\Новая папка (2)\Chansons franзaises de lйgende - Vol 4 - CD4\20-Andrй Dassary - L'auberge qui chante.wav
Peak level 85.2 %
Track quality 100.0 %
Test CRC 5CB16CE5
Copy CRC 5CB16CE5
Copy OK
Track 21
Filename C:\Новая папка (2)\Chansons franзaises de lйgende - Vol 4 - CD4\21-Ray Ventura - A la mi-aoыt.wav
Peak level 86.7 %
Track quality 100.0 %
Test CRC 51A2FA2D
Copy CRC 51A2FA2D
Copy OK
Track 22
Filename C:\Новая папка (2)\Chansons franзaises de lйgende - Vol 4 - CD4\22-Jacques Hйlian - Je te-le-le.wav
Peak level 82.6 %
Track quality 100.0 %
Test CRC 9A0C2CC2
Copy CRC 9A0C2CC2
Copy OK
Track 23
Filename C:\Новая папка (2)\Chansons franзaises de lйgende - Vol 4 - CD4\23-Yvette Giraud - Un homme est un homme.wav
Peak level 76.0 %
Track quality 100.0 %
Test CRC AF11C440
Copy CRC AF11C440
Copy OK
Track 24
Filename C:\Новая папка (2)\Chansons franзaises de lйgende - Vol 4 - CD4\24-Jacqueline Franзois - Moi, je dors prиs de la Seine.wav
Peak level 87.0 %
Track quality 100.0 %
Test CRC 600B98C5
Copy CRC 600B98C5
Copy OK
Track 25
Filename C:\Новая папка (2)\Chansons franзaises de lйgende - Vol 4 - CD4\25-Bourvil - Caroline, Caroline.wav
Peak level 86.8 %
Track quality 100.0 %
Test CRC 5BB65F39
Copy CRC 5BB65F39
Copy OK
No errors occurred
End of status report
Правила, инструкции, FAQ!!!
Торрент   Скачать торрент Магнет ссылка
Скачать торрент
[ Размер 33.25 КБ / Просмотров 1 ]

Статус
Проверен 
 
Размер  985.18 МБ
Приватный: Нет (DHT включён)
.torrent скачан  0
Как залить торрент? | Как скачать Torrent? | Ошибка в торренте? Качайте магнет  


Профиль     Отправить личное сообщение
   
Страница 1 из 1
Показать сообщения за:  Поле сортировки  
Начать новую тему Ответить на тему


Сейчас эту тему просматривают: нет зарегистрированных пользователей и гости: 1


Вы не можете начинать темы
Вы не можете отвечать на сообщения
Вы не можете редактировать свои сообщения
Вы не можете удалять свои сообщения
Вы не можете добавлять вложения

Перейти:  
Ресурс не предоставляет электронные версии произведений, а занимается лишь коллекционированием и каталогизацией ссылок, присылаемых и публикуемых на форуме нашими читателями. Если вы являетесь правообладателем какого-либо представленного материала и не желаете чтобы ссылка на него находилась в нашем каталоге, свяжитесь с нами и мы незамедлительно удалим её. Файлы для обмена на трекере предоставлены пользователями сайта, и администрация не несёт ответственности за их содержание. Просьба не заливать файлы, защищенные авторскими правами, а также файлы нелегального содержания!