Начать новую тему Ответить на тему
Статистика раздачи
Размер: 130.27 МБ | | Скачали: 0
Сидеров: 0  [0 байт/сек]    Личеров: 0  [0 байт/сек]
Пред. тема | След. тема 

Автор
Сообщение

Ответить с цитатой 

Релиз группа

Стаж: 11 лет 1 месяц 17 дней
Раздал: 506.14 МБ
Скачал: 1 МБ
Ратио: 506.142
Торренты: 14417
VA / Chansons érotiques
Жанр: Chanson
Носитель: CD
Страна-производитель диска (релиза): France
Год издания: 2006
Издатель (лейбл): Membran Music Ltd
Номер по каталогу: 223649-205
Страна исполнителя (группы): France
Аудиокодек: FLAC (*.flac)
Тип рипа: image+.cue
Битрейт аудио: lossless
Продолжительность: 01:00:42
Источник (релизер): cd из собственной коллекции
Наличие сканов в содержимом раздачи: нет
Треклист:
1. Sandrey – Ouvr' La Fenetre
2. Lyne Clevers – Prenez Mes Mandarines
3. Fernandel – Aventure Galante
4. O'Dett – Le Tsoin-Tsoin
5. Lyjo – Vous Comprenez L'Allusion?
6. Ray Ventura Et Ses Collegiens – Je Peux Point Vous L'Dire
7. Annie Cordy – La Biaiseuse
8. Ouvrard – Titi... Toto... Et Patata!
9. Dranem – Le Trou De Mon Quai
10. Yvette Guilbert – Partie Carree
11. Sandrey – On Vient D'Me L'Faire
12. Lyjo – Idylle Souterraine
13. Jane Styck – La Lecon De Couture
14. Jacky – La Tapette En Bois
15. Fernandel – Folatrerie
16. Sandrey – Un Essayage
17. Dranem – Henri, Pourquoi N'Aimes-Tu Pas Les Femmes?
18. Lyjo – L'Asperge Et Le Haricot
19. O'Dett – Travaillera Rusticana
20. Georgius – Imprudentes!...
21. Berthe Sylva – Le Joli Fusil
22. Lyjo – Zezette Et Kiki (Histoire Canine)
[pre]Exact Audio Copy V1.0 beta 4 from 7. December 2014
Отчёт EAC об извлечении, выполненном 1. апреля 2016, 7:43
Various Artists / Chansons érotiques
Дисковод: TSSTcorpCDDVDW SN-208DB Adapter: 1 ID: 0
Режим чтения : Достоверность
Использование точного потока : Да
Отключение кэша аудио : Да
Использование указателей C2 : Нет
Коррекция смещения при чтении : 6
Способность читать области Lead-in и Lead-out : Нет
Заполнение пропущенных сэмплов тишиной : Да
Удаление блоков с тишиной в начале и конце : Нет
При вычислениях CRC использовались нулевые сэмплы : Да
Интерфейс : Встроенный Win32-интерфейс для Win NT/2000
Выходной формат : Пользовательский кодировщик
Выбранный битрейт : 128 kBit/s
Качество : Высокий
Добавление ID3-тега : Нет
Утилита сжатия : D:\Program Files\Exact Audio Copy\Flac\flac.exe
Дополнительные параметры : -V -8 -T "Date=%year%" -T "Genre=%genre%" %source%
TOC извлечённого CD
Трек | Старт | Длительность | Начальный сектор | Конечный сектор
---------------------------------------------------------------------
1 | 0:00.00 | 2:21.09 | 0 | 10583
2 | 2:21.09 | 2:41.54 | 10584 | 22712
3 | 5:02.63 | 3:32.08 | 22713 | 38620
4 | 8:34.71 | 2:22.63 | 38621 | 49333
5 | 10:57.59 | 2:37.31 | 49334 | 61139
6 | 13:35.15 | 3:14.19 | 61140 | 75708
7 | 16:49.34 | 3:48.21 | 75709 | 92829
8 | 20:37.55 | 2:35.56 | 92830 | 104510
9 | 23:13.36 | 2:47.18 | 104511 | 117053
10 | 26:00.54 | 2:10.23 | 117054 | 126826
11 | 28:11.02 | 2:40.49 | 126827 | 138875
12 | 30:51.51 | 2:36.71 | 138876 | 150646
13 | 33:28.47 | 2:19.37 | 150647 | 161108
14 | 35:48.09 | 2:36.07 | 161109 | 172815
15 | 38:24.16 | 3:00.62 | 172816 | 186377
16 | 41:25.03 | 2:38.36 | 186378 | 198263
17 | 44:03.39 | 2:56.17 | 198264 | 211480
18 | 46:59.56 | 3:00.62 | 211481 | 225042
19 | 50:00.43 | 2:51.17 | 225043 | 237884
20 | 52:51.60 | 2:46.24 | 237885 | 250358
21 | 55:38.09 | 2:24.07 | 250359 | 261165
22 | 58:02.16 | 2:39.68 | 261166 | 273158
Характеристики диапазона извлечения и сообщения об ошибках
Выбранный диапазон
Имя файла D:\Various Artists - Chansons érotiques.wav
Пиковый уровень 93.3 %
Скорость извлечения 4.0 X
Качество диапазона 100.0 %
CRC теста 15FBB4CB
CRC копии 15FBB4CB
Копирование... OK
Ошибок не произошло
Конец отчёта
==== Контрольная сумма отчёта 48C070CD9522B111F377627F40818783EA003895BC3DA4122B7FC07C40693AC8 ====
Started at: вторник, 10. 05. 2016. - 21:19.10
22 files found
01 -===- D:\01 - Ouvr' la fenetre.flac
Extracted successfully
Conclusion: this track is CDDA with probability 100%
02 -===- D:\02 - Prenez mes mandarines .flac
Extracted successfully
Conclusion: this track is CDDA with probability 100%
03 -===- D:\03 - Aventure galante.flac
Extracted successfully
Conclusion: this track is CDDA with probability 42%
04 -===- D:\04 - Le tsoin-tsoin.flac
Extracted successfully
Conclusion: this track is MPEG with probability 91%
05 -===- D:\05 - Vous comprenez l'allusion .flac
Extracted successfully
Conclusion: this track is CDDA with probability 43%
06 -===- D:\06 - Je peux point vous l'dire.flac
Extracted successfully
Conclusion: this track is MPEG with probability 80%
07 -===- D:\07 - La biaiseuse.flac
Extracted successfully
Conclusion: this track is CDDA with probability 100%
08 -===- D:\08 - Titi... toto... et patata !.flac
Extracted successfully
Conclusion: this track is MPEG with probability 97%
09 -===- D:\09 - Le trou de mon quai.flac
Extracted successfully
Conclusion: this track is MPEG with probability 100%
10 -===- D:\10 - Partie carree.flac
Extracted successfully
Conclusion: this track is CDDA with probability 100%
11 -===- D:\11 - On vient d'me l'faire.flac
Extracted successfully
Conclusion: this track is CDDA with probability 43%
12 -===- D:\12 - Idylle souterraine.flac
Extracted successfully
Conclusion: this track is MPEG with probability 89%
13 -===- D:\13 - La lecon de couture .flac
Extracted successfully
Conclusion: this track is MPEG with probability 90%
14 -===- D:\14 - La tapette en bois.flac
Extracted successfully
Conclusion: this track is MPEG with probability 100%
15 -===- D:\15 - Folatrerie.flac
Extracted successfully
Conclusion: this track is CDDA with probability 99%
16 -===- D:\16 - Un essayage.flac
Extracted successfully
Conclusion: this track is MPEG with probability 100%
17 -===- D:\17 - Henri, pourquoi n'aimes-tu pas les femmes .flac
Extracted successfully
Conclusion: this track is MPEG with probability 93%
18 -===- D:\18 - L'asperge et le haricot.flac
Extracted successfully
Conclusion: this track is CDDA with probability 49%
19 -===- D:\19 - Travaillera rusticana.flac
Extracted successfully
Conclusion: this track is MPEG with probability 100%
20 -===- D:\20 - Imprudentes !....flac
Extracted successfully
Conclusion: this track is MPEG with probability 91%
21 -===- D:\21 - Le joli fusil.flac
Extracted successfully
Conclusion: this track is CDDA with probability 100%
22 -===- D:\22 - Zezette et Kiki (histoire canine).flac
Extracted successfully
Conclusion: this track is MPEG with probability 90%
Finished at: вторник, 10. 05. 2016. - 21:24.11 (operation time: 0:05.00)
Правила, инструкции, FAQ!!!
Торрент   Скачать торрент Магнет ссылка
Скачать торрент
[ Размер 10.84 КБ / Просмотров 0 ]

Статус
Проверен 
 
Размер  130.27 МБ
Приватный: Нет (DHT включён)
.torrent скачан  0
Как залить торрент? | Как скачать Torrent? | Ошибка в торренте? Качайте магнет  


Профиль     Отправить личное сообщение
   
Страница 1 из 1
Показать сообщения за:  Поле сортировки  
Начать новую тему Ответить на тему


Сейчас эту тему просматривают: нет зарегистрированных пользователей и гости: 1


Вы не можете начинать темы
Вы не можете отвечать на сообщения
Вы не можете редактировать свои сообщения
Вы не можете удалять свои сообщения
Вы не можете добавлять вложения

Перейти:  
Ресурс не предоставляет электронные версии произведений, а занимается лишь коллекционированием и каталогизацией ссылок, присылаемых и публикуемых на форуме нашими читателями. Если вы являетесь правообладателем какого-либо представленного материала и не желаете чтобы ссылка на него находилась в нашем каталоге, свяжитесь с нами и мы незамедлительно удалим её. Файлы для обмена на трекере предоставлены пользователями сайта, и администрация не несёт ответственности за их содержание. Просьба не заливать файлы, защищенные авторскими правами, а также файлы нелегального содержания!