Начать новую тему Ответить на тему
Статистика раздачи
Размер: 125.79 МБ | | Скачали: 0
Сидеров: 0  [0 байт/сек]    Личеров: 0  [0 байт/сек]
Пред. тема | След. тема 

Автор
Сообщение

Ответить с цитатой 

The Beginerz / Reckless Girl
Жанр: Disco House, Funky House
Страна-производитель диска: UK
Год издания: 2002
Издатель (лейбл): Cheeky Records
Номер по каталогу: 74321 950022
Аудиокодек: FLAC (*.flac)
Тип рипа: tracks+.cue
Битрейт аудио: lossless
Продолжительность: 19:28
Источник (релизер): Собственный рип
Наличие сканов в содержимом раздачи: да
Треклист:
01 Reckless Girl (Radio Edit) 3:07
02 Reckless Girl (Original Mix) 7:22
03 Reckless Girl (Sister Bliss Remix) 8:48
Код:
X Lossless Decoder version 20110821 (136.1)
XLD extraction logfile from 2012-06-05 11:08:48 -0700
The Beginerz / Reckless Girl
Used drive : TSSTcorp CDDVDW SE-S084C (revision TU00)
Ripper mode             : CDParanoia III 10.2
Disable audio cache     : OK for the drive with a cache less than 2750KiB
Make use of C2 pointers : NO
Read offset correction  : 6
Max retry count         : 100
Gap status              : Analyzed, Appended
TOC of the extracted CD
     Track |   Start  |  Length  | Start sector | End sector
    ---------------------------------------------------------
        1  | 00:00:00 | 03:09:21 |         0    |    14195
        2  | 03:09:21 | 07:29:67 |     14196    |    47937
        3  | 10:39:13 | 08:49:06 |     47938    |    87618
AccurateRip Summary
    Track 01 : OK (confidence 1)
    Track 02 : OK (confidence 1)
    Track 03 : OK (confidence 1)
        ->All tracks accurately ripped.
All Tracks
    Album gain             : -7.73 dB
    Peak                   : 0.999969
    Statistics
        Read error                           : 0
        Skipped (treated as error)           : 0
        Edge jitter error (maybe fixed)      : 0
        Atom jitter error (maybe fixed)      : 0
        Drift error (maybe fixed)            : 0
        Dropped bytes error (maybe fixed)    : 0
        Duplicated bytes error (maybe fixed) : 0
Track 01
    Filename : /Volumes/WORK/alekseymusiuk/Music/*SINGLES *IN QUALITY*/The Beginerz ‎– Reckless Girl (UK Maxi-Single) [2002]/01 The Beginerz - Reckless Girl (Radio Edit).flac
    Pre-gap length : 00:02:00
    Track gain             : -8.59 dB
    Peak                   : 0.993225
    CRC32 hash (test run)  : 61141238
    CRC32 hash             : 61141238
    CRC32 hash (skip zero) : 0F4FE710
    AccurateRip signature  : 4ECB2303
        ->Accurately ripped! (confidence 1)
    Statistics
        Read error                           : 0
        Skipped (treated as error)           : 0
        Edge jitter error (maybe fixed)      : 0
        Atom jitter error (maybe fixed)      : 0
        Drift error (maybe fixed)            : 0
        Dropped bytes error (maybe fixed)    : 0
        Duplicated bytes error (maybe fixed) : 0
        Inconsistency in error sectors       : 0
Track 02
    Filename : /Volumes/WORK/alekseymusiuk/Music/*SINGLES *IN QUALITY*/The Beginerz ‎– Reckless Girl (UK Maxi-Single) [2002]/02 The Beginerz - Reckless Girl (Original Mix).flac
    Pre-gap length : 00:02:00
    Track gain             : -7.11 dB
    Peak                   : 0.997314
    CRC32 hash (test run)  : 6C657758
    CRC32 hash             : 6C657758
    CRC32 hash (skip zero) : C7CF524E
    AccurateRip signature  : E1378DF2
        ->Accurately ripped! (confidence 1)
    Statistics
        Read error                           : 0
        Skipped (treated as error)           : 0
        Edge jitter error (maybe fixed)      : 0
        Atom jitter error (maybe fixed)      : 0
        Drift error (maybe fixed)            : 0
        Dropped bytes error (maybe fixed)    : 0
        Duplicated bytes error (maybe fixed) : 0
        Inconsistency in error sectors       : 0
Track 03
    Filename : /Volumes/WORK/alekseymusiuk/Music/*SINGLES *IN QUALITY*/The Beginerz ‎– Reckless Girl (UK Maxi-Single) [2002]/03 The Beginerz - Reckless Girl (Sister Bliss Remix).flac
    Pre-gap length : 00:02:00
    Track gain             : -7.71 dB
    Peak                   : 0.999969
    CRC32 hash (test run)  : 9C99BE2D
    CRC32 hash             : 9C99BE2D
    CRC32 hash (skip zero) : B73902A7
    AccurateRip signature  : B0F7110C
        ->Accurately ripped! (confidence 1)
    Statistics
        Read error                           : 0
        Skipped (treated as error)           : 0
        Edge jitter error (maybe fixed)      : 0
        Atom jitter error (maybe fixed)      : 0
        Drift error (maybe fixed)            : 0
        Dropped bytes error (maybe fixed)    : 0
        Duplicated bytes error (maybe fixed) : 0
        Inconsistency in error sectors       : 0
No errors occurred
End of status report
Код:
TITLE "Reckless Girl"
PERFORMER "The Beginerz"
REM GENRE "Dance & House"
REM DATE "2002"
REM DISCID 18049003
FILE "01 The Beginerz - Reckless Girl (Radio Edit).wav" WAVE
  TRACK 01 AUDIO
    TITLE "Reckless Girl (Radio Edit)"
    INDEX 01 00:00:00
  TRACK 02 AUDIO
    TITLE "Reckless Girl (Original Mix)"
    INDEX 00 03:07:21
FILE "02 The Beginerz - Reckless Girl (Original Mix).wav" WAVE
    INDEX 01 00:00:00
  TRACK 03 AUDIO
    TITLE "Reckless Girl (Sister Bliss Remix)"
    INDEX 00 07:27:67
FILE "03 The Beginerz - Reckless Girl (Sister Bliss Remix).wav" WAVE
    INDEX 01 00:00:00
Правила, инструкции, FAQ!!!
Торрент   Скачать торрент Магнет ссылка
Скачать торрент
[ Размер 20.72 КБ / Просмотров 1 ]

Статус
Проверен 
 
Размер  125.79 МБ
Приватный: Нет (DHT включён)
.torrent скачан  0
Как залить торрент? | Как скачать Torrent? | Ошибка в торренте? Качайте магнет  


     Отправить личное сообщение
   
Страница 1 из 1
Показать сообщения за:  Поле сортировки  
Начать новую тему Ответить на тему


Сейчас эту тему просматривают: нет зарегистрированных пользователей и гости: 1


Вы не можете начинать темы
Вы не можете отвечать на сообщения
Вы не можете редактировать свои сообщения
Вы не можете удалять свои сообщения
Вы не можете добавлять вложения

Перейти:  
Ресурс не предоставляет электронные версии произведений, а занимается лишь коллекционированием и каталогизацией ссылок, присылаемых и публикуемых на форуме нашими читателями. Если вы являетесь правообладателем какого-либо представленного материала и не желаете чтобы ссылка на него находилась в нашем каталоге, свяжитесь с нами и мы незамедлительно удалим её. Файлы для обмена на трекере предоставлены пользователями сайта, и администрация не несёт ответственности за их содержание. Просьба не заливать файлы, защищенные авторскими правами, а также файлы нелегального содержания!