Начать новую тему Ответить на тему
Статистика раздачи
Размер: 136.67 МБ | | Скачали: 0
Сидеров: 2  [0 байт/сек]    Личеров: 1  [0 байт/сек]
Пред. тема | След. тема 

Автор
Сообщение

Ответить с цитатой 

The Tone Selector - Russian Roulette
Жанр: Hard House, Trance
Страна-производитель диска: Netherlands
Год издания: 2000
Издатель (лейбл): Digi White
Номер по каталогу: Digi 038-3
Страна: Netherlands
Аудиокодек: FLAC (*.flac)
Тип рипа: tracks+.cue
Битрейт аудио: lossless
Продолжительность: 00:18:38
Источник (релизер): Собственный рип от LP_Masta
Наличие сканов в содержимом раздачи: да
Треклист:
01. Russian Roulette (Radio Mix) (04:00)
02. Russian Roulette (Bullet Mix) (07:40)
03. Russian Roulette (Trigger Mix) (06:58)
Код:
Exact Audio Copy V1.0 beta 3 from 29. August 2011
Отчёт EAC об извлечении, выполненном 12. января 2013, 16:54
The Tone Selector / Russian Roulette
Дисковод: ATAPI   DVD A  DH20A3H   Adapter: 1  ID: 1
Режим чтения                 : Достоверность
Использование точного потока : Да
Отключение кэша аудио        : Да
Использование указателей C2  : Нет
Коррекция смещения при чтении                     : 6
Способность читать области Lead-in и Lead-out     : Нет
Заполнение пропущенных сэмплов тишиной            : Да
Удаление блоков с тишиной в начале и конце        : Нет
При вычислениях CRC использовались нулевые сэмплы : Да
Интерфейс                                         : Встроенный Win32-интерфейс для Win NT/2000
Обработка зазоров                                 : Добавлено к предыдущему треку
Выходной формат          : Пользовательский кодировщик
Выбранный битрейт        : 1024 kBit/s
Качество                 : Высокий
Добавление ID3-тега      : Нет
Утилита сжатия           : C:\Program Files\Exact Audio Copy\Flac\flac.exe
Дополнительные параметры : -V -8 -T "Genre=%genre%" -T "Artist=%artist%" -T "Title=%title%" -T "Album=%albumtitle%" -T "Date=%year%" -T "Tracknumber=%tracknr%" -T "Comment=%comment%" %source%
TOC извлечённого CD
     Трек |   Старт  | Длительность | Начальный сектор | Конечный сектор
    ---------------------------------------------------------------------
       1  |  0:00.00 |    4:00.26   |           0      |      18025
       2  |  4:00.26 |    7:40.12   |       18026      |      52537
       3  | 11:40.38 |    6:57.49   |       52538      |      83861
Трек  1
     Имя файла C:\Documents and Settings\LP_Masta\Мои документы\Раздачи для торрентс.ру\The Tone Selector\Singles\2000 - Russian Roulette NL CDS\01 - Russian Roulette (Radio Mix).wav
     Длина предзазора  0:00:02.00
     Пиковый уровень 89.1 %
     Скорость извлечения 3.6 X
     Качество трека 99.9 %
     CRC теста 1388D2EE
     CRC копии 1388D2EE
     Трек не обнаружен в базе AccurateRip
     Копирование... OK
Трек  2
     Имя файла C:\Documents and Settings\LP_Masta\Мои документы\Раздачи для торрентс.ру\The Tone Selector\Singles\2000 - Russian Roulette NL CDS\02 - Russian Roulette (Bullet Mix).wav
     Длина предзазора  0:00:01.45
     Пиковый уровень 89.1 %
     Скорость извлечения 4.8 X
     Качество трека 99.9 %
     CRC теста 5CB3EDD5
     CRC копии 5CB3EDD5
     Трек не обнаружен в базе AccurateRip
     Копирование... OK
Трек  3
     Имя файла C:\Documents and Settings\LP_Masta\Мои документы\Раздачи для торрентс.ру\The Tone Selector\Singles\2000 - Russian Roulette NL CDS\03 - Russian Roulette (Trigger Mix).wav
     Длина предзазора  0:00:01.45
     Пиковый уровень 89.1 %
     Скорость извлечения 5.4 X
     Качество трека 99.9 %
     CRC теста AA8F0125
     CRC копии AA8F0125
     Трек не обнаружен в базе AccurateRip
     Копирование... OK
Ни одного трека нет в базе AccurateRip
Ошибок не произошло
Конец отчёта
---- CUETools DB Plugin V2.1.3
[CTDB TOCID: 3yuT4kblAjBpMeHCiNuJAab.gwM-] found, Submit result: 3yuT4kblAjBpMeHCiNuJAab.gwM- has been confirmed
[02267a26] (1/1) Accurately ripped
==== Контрольная сумма отчёта 09CA46F15BFA35AB91FBE986F98ED3FD910776B8B697B7E206DB205FBF6047F9 ====
Код:
REM GENRE House
REM DATE 2000
REM DISCID 13045E03
REM COMMENT "ExactAudioCopy v1.0b3"
PERFORMER "The Tone Selector"
TITLE "Russian Roulette"
FILE "01 - Russian Roulette (Radio Mix).wav" WAVE
  TRACK 01 AUDIO
    TITLE "Russian Roulette (Radio Mix)"
    PERFORMER "The Tone Selector"
    FLAGS DCP
    INDEX 01 00:00:00
  TRACK 02 AUDIO
    TITLE "Russian Roulette (Bullet Mix)"
    PERFORMER "The Tone Selector"
    FLAGS DCP
    INDEX 00 03:58:56
FILE "02 - Russian Roulette (Bullet Mix).wav" WAVE
    INDEX 01 00:00:00
  TRACK 03 AUDIO
    TITLE "Russian Roulette (Trigger Mix)"
    PERFORMER "The Tone Selector"
    FLAGS DCP
    INDEX 00 07:38:42
FILE "03 - Russian Roulette (Trigger Mix).wav" WAVE
    INDEX 01 00:00:00
The Tone Selector - проект известных голландских продюсеров: Koen Groeneveld, Addy van der Zwan и Jan Voermans.
Правила, инструкции, FAQ!!!
Торрент   Скачать торрент Магнет ссылка
Скачать торрент
[ Размер 11.68 КБ / Просмотров 5 ]

Статус
Проверен 
 
Размер  136.67 МБ
Приватный: Нет (DHT включён)
.torrent скачан  0
Как залить торрент? | Как скачать Torrent? | Ошибка в торренте? Качайте магнет  


     Отправить личное сообщение
   
Страница 1 из 1
Показать сообщения за:  Поле сортировки  
Начать новую тему Ответить на тему


Сейчас эту тему просматривают: нет зарегистрированных пользователей и гости: 1


Вы не можете начинать темы
Вы не можете отвечать на сообщения
Вы не можете редактировать свои сообщения
Вы не можете удалять свои сообщения
Вы не можете добавлять вложения

Перейти:  
Ресурс не предоставляет электронные версии произведений, а занимается лишь коллекционированием и каталогизацией ссылок, присылаемых и публикуемых на форуме нашими читателями. Если вы являетесь правообладателем какого-либо представленного материала и не желаете чтобы ссылка на него находилась в нашем каталоге, свяжитесь с нами и мы незамедлительно удалим её. Файлы для обмена на трекере предоставлены пользователями сайта, и администрация не несёт ответственности за их содержание. Просьба не заливать файлы, защищенные авторскими правами, а также файлы нелегального содержания!